Hansel And Gretel Get Baked 2013 HDRiP AC3-2 0 XviD-AXED

Hansel And Gretel Get Baked (2013)

Silna nowa odmiana marihuany o nazwie ‘Black Forest’ staje się bardzo popularna w Los Angeles, dużo palący chłopak Gretel nie jest w stanie zdobyć wystarczająco dużo towaru. Jednak gdy stara kobieta hodująca popularny narkotyk (Lara Flynn Boyle) okazuje się być złą wiedźmą gotującą i zjadającą upalonych młodych ludzi dla ich młodości, Gretel wraz z bratem Hanselem muszą ocalić go przed straszliwą śmiercią – w przeciwnym razie będzie to ich ostatni odlot w życiu.
Complete name : Hansel.And.Gretel.Get.Baked.2013.HDRiP.AC3-2.0.XviD-AXED.avi
Format : AVI
Format/Info : Audio Video Interleave
File size : 1.27 GiB
Duration : 1h 26mn
Overall bit rate : 2 087 Kbps

Video
ID : 0
Format : MPEG-4 Visual
Format profile : Advanced Simple@L5
Format settings, BVOP : 2
Format settings, QPel : No
Format settings, GMC : No warppoints
Format settings, Matrix : Default (H.263)
Muxing mode : Packed bitstream
Codec ID : XVID
Codec ID/Hint : XviD
Duration : 1h 26mn
Bit rate : 1 888 Kbps
Width : 720 pixels
Height : 384 pixels
Display aspect ratio : 1.85:1
Frame rate : 23.976 fps
Color space : YUV
Chroma subsampling : 4:2:0
Bit depth : 8 bits
Scan type : Progressive
Compression mode : Lossy
Bits/(Pixel*Frame) : 0.285
Stream size : 1.14 GiB (90%)
Writing library : XviD 64

Audio
ID : 1
Format : AC-3
Format/Info : Audio Coding 3
Mode extension : CM (complete main)
Format settings, Endianness : Big
Codec ID : 2000
Duration : 1h 26mn
Bit rate mode : Constant
Bit rate : 192 Kbps
Channel(s) : 2 channels
Channel positions : Front: L R
Sampling rate : 44.1 KHz
Bit depth : 16 bits
Compression mode : Lossy
Stream size : 119 MiB (9%)
Alignment : Aligned on interleaves
Interleave, duration : 70 ms (1.67 video frames)
Interleave, preload duration : 208 ms
Title : getbaked (1) - [1]
http://replik.pl/fg/1v-wtdx-i_/
http://replik.pl/fg/c3aky9gsei/

http://www.putlocker.com/file/7E857F956F98322F
http://www.putlocker.com/file/D469B802E48CF02A

http://mgdc97.1fichier.com/
http://5ffpk8.1fichier.com/

http://BillionUploads.com/oi4sol8ltgbv
http://BillionUploads.com/bmo9d1mgngmm

http://www.nowdownload.eu/dl/gkhg4lgx3livi
http://www.nowdownload.eu/dl/vv4adnzbf0bc5